<?xml version="1.0" standalone="no"?>
<!DOCTYPE svg PUBLIC "-//W3C//DTD SVG 1.1//EN" "http://www.w3.org/Graphics/SVG/1.1/DTD/svg11.dtd" >
<svg xmlns="http://www.w3.org/2000/svg">
<metadata></metadata>
<defs>
<font id="fira_sans_otlight" horiz-adv-x="1024" >
<font-face units-per-em="2048" ascent="1638" descent="-410" />
<missing-glyph horiz-adv-x="573" />
<glyph horiz-adv-x="0" />
<glyph horiz-adv-x="0" />
<glyph horiz-adv-x="682" />
<glyph unicode="&#xd;" horiz-adv-x="573" />
<glyph unicode=" "  horiz-adv-x="573" />
<glyph unicode="&#x09;" horiz-adv-x="573" />
<glyph unicode="&#xa0;" horiz-adv-x="573" />
<glyph unicode="!" horiz-adv-x="573" d="M188 74q0 42 27.5 69t71.5 27q45 0 71.5 -27t26.5 -69t-26.5 -69.5t-71.5 -27.5q-44 0 -71.5 27.5t-27.5 69.5zM219 399v1004h117v-1004h-117z" />
<glyph unicode="&#x22;" horiz-adv-x="829" d="M205 1403h123v-514h-80zM502 1403h123v-514h-80z" />
<glyph unicode="#" d="M25 373v94h178l59 448h-170v95h182l48 352h108l-47 -352h344l47 352h109l-47 -352h163v-95h-176l-59 -448h168v-94h-180l-50 -373h-108l49 373h-344l-49 -373h-109l49 373h-165zM311 467h344l60 448h-344z" />
<glyph unicode="$" d="M57 141l70 80q154 -141 377 -141q156 0 249 76t93 217q0 67 -18.5 113.5t-64.5 82t-103 60t-154 53.5q-206 64 -297.5 150t-91.5 221q0 137 98.5 226t259.5 103v310h98v-310q206 -10 359 -137l-72 -80q-139 121 -332 121q-130 0 -210 -58t-80 -171q0 -107 68 -163.5 t253 -113.5q65 -20 115 -39.5t98.5 -45t82.5 -56t61 -68.5t40 -87t13 -107q0 -165 -106 -269.5t-292 -121.5v-293h-100v291q-260 9 -414 157z" />
<glyph unicode="%" horiz-adv-x="1740" d="M184 1051q0 153 83 243t222 90t222.5 -89t83.5 -242t-83.5 -243.5t-222.5 -90.5t-222 89.5t-83 242.5zM299 1051q0 -45 10 -86t31 -77t59.5 -57.5t89.5 -21.5q52 0 90 19t59.5 53.5t31.5 77t10 94.5q0 45 -10 86t-31.5 76.5t-60 57t-89.5 21.5q-52 0 -90 -19t-59 -53 t-31 -76.5t-10 -94.5zM356 8l947 1430l90 -54l-947 -1429zM946 309q0 153 83 243.5t222 90.5t222 -89.5t83 -242.5t-83 -243.5t-222 -90.5t-222 89.5t-83 242.5zM1061 309q0 -98 46 -169.5t144 -71.5q68 0 112.5 34t61.5 86t17 123q0 98 -46.5 170t-144.5 72 q-100 0 -145 -67t-45 -177z" />
<glyph unicode="&#x26;" horiz-adv-x="1591" d="M236 342q0 128 65.5 222t208.5 188q-79 75 -121.5 124.5t-70 111.5t-27.5 132q0 131 93 218t249 87q158 0 252 -84.5t94 -201.5q0 -118 -67 -205.5t-230 -194.5l395 -377q92 145 160 400l115 -43q-68 -246 -189 -432l316 -287h-170l-213 197q-188 -220 -447 -220 q-186 0 -299.5 100t-113.5 265zM358 340q0 -115 81 -187.5t214 -72.5q203 0 361 190l-426 410q-134 -87 -182 -156t-48 -184zM408 1120q0 -75 40.5 -139.5t155.5 -169.5q147 92 201.5 157t54.5 158q0 89 -65 147t-162 58q-104 0 -164.5 -60t-60.5 -151z" />
<glyph unicode="'" horiz-adv-x="532" d="M205 1403h123v-514h-80z" />
<glyph unicode="(" horiz-adv-x="665" d="M113 717q0 162 25 301t75 257t107 211.5t139 201.5l73 -50q-148 -208 -223.5 -424.5t-75.5 -496.5q0 -279 76 -497t223 -425l-73 -49q-82 108 -139 201.5t-107 211.5t-75 257t-25 301z" />
<glyph unicode=")" horiz-adv-x="665" d="M133 -205q147 207 223 425t76 497q0 280 -75.5 496.5t-223.5 424.5l74 50q82 -108 139 -201.5t107 -211.5t75 -257t25 -301t-25 -301t-75 -257t-107 -211.5t-139 -201.5z" />
<glyph unicode="*" horiz-adv-x="901" d="M76 1192l35 108l299 -114l-17 321h115l-16 -321l299 114l34 -108l-309 -84l203 -250l-92 -65l-176 266l-177 -266l-92 65l201 250z" />
<glyph unicode="+" d="M143 586v104h312v316h114v-316h312v-104h-312v-316h-114v316h-312z" />
<glyph unicode="," horiz-adv-x="573" d="M141 -309l92 299q-47 26 -47 84q0 41 28.5 68.5t72.5 27.5q46 0 72 -27t26 -69q0 -27 -6.5 -48t-26.5 -63l-127 -272h-84z" />
<glyph unicode="-" horiz-adv-x="798" d="M135 586v106h529v-106h-529z" />
<glyph unicode="." horiz-adv-x="573" d="M188 74q0 42 27.5 69t71.5 27q45 0 71.5 -27t26.5 -69t-26.5 -69.5t-71.5 -27.5q-44 0 -71.5 27.5t-27.5 69.5z" />
<glyph unicode="/" horiz-adv-x="1064" d="M246 -195l473 1842l100 -25l-473 -1841z" />
<glyph unicode="0" horiz-adv-x="1118" d="M123 682q0 345 111 523.5t325 178.5t325 -179t111 -525q0 -345 -111 -524t-325 -179t-325 179.5t-111 525.5zM246 682q0 -314 75.5 -458t237.5 -144t237.5 143t75.5 457t-75.5 458t-237.5 144t-237.5 -143t-75.5 -457z" />
<glyph unicode="1" horiz-adv-x="733" d="M31 1114l389 248h98v-1362h-115v1233l-315 -205z" />
<glyph unicode="2" horiz-adv-x="952" d="M51 1159q91 115 189.5 170t222.5 55q103 0 187.5 -40.5t137 -123t52.5 -194.5q0 -55 -14 -110t-36 -106.5t-66.5 -116t-88.5 -121t-119.5 -138.5t-142 -151.5t-172.5 -176.5h659l-16 -106h-781v102q139 143 218.5 227.5t164.5 180t127 154.5t79 126t50 121.5t13 114.5 q0 119 -72.5 187.5t-185.5 68.5q-97 0 -171.5 -45t-148.5 -139z" />
<glyph unicode="3" horiz-adv-x="985" d="M51 154l82 69q123 -143 309 -143q149 0 232.5 83.5t83.5 221.5q0 143 -84.5 213t-237.5 70h-71l14 96h49q122 0 207.5 71.5t85.5 202.5q0 111 -71.5 178.5t-192.5 67.5q-90 0 -161 -29t-142 -94l-66 76q163 147 377 147q173 0 276 -98t103 -237q0 -120 -66.5 -201 t-173.5 -121l8 -4q123 -27 197 -110.5t74 -227.5q0 -176 -122.5 -292t-318.5 -116q-234 0 -391 177z" />
<glyph unicode="4" horiz-adv-x="1028" d="M92 354v95l408 935l98 -41l-383 -884h463l14 397h103v-397h182v-105h-182v-354h-117v354h-586z" />
<glyph unicode="5" horiz-adv-x="1030" d="M92 150l82 67q122 -139 301 -139q147 0 233.5 98.5t86.5 263.5q0 164 -79.5 246t-211.5 82q-110 0 -228 -59h-92v653h684l-16 -102h-555v-455q117 57 235 57q172 0 279 -114t107 -306q0 -205 -122 -335t-321 -130q-234 0 -383 173z" />
<glyph unicode="6" horiz-adv-x="1062" d="M123 590q0 380 134 587t357 207q82 0 145 -22t124 -70l-56 -82q-54 42 -101.5 58t-107.5 16q-171 0 -266.5 -162t-103.5 -436q129 201 332 201q161 0 265.5 -109.5t104.5 -318.5q0 -217 -115 -349.5t-288 -132.5q-114 0 -198.5 49.5t-132.5 136.5t-70.5 193.5 t-22.5 233.5zM244 563q3 -236 78 -360.5t225 -124.5q132 0 206 103t74 274t-70.5 252t-193.5 81q-175 0 -319 -225z" />
<glyph unicode="7" horiz-adv-x="833" d="M20 1257v105h762v-96l-540 -1289l-111 35l533 1245h-644z" />
<glyph unicode="8" horiz-adv-x="1128" d="M113 358q0 127 77 221.5t218 153.5q-116 55 -175 131.5t-59 188.5q0 81 34 146t90.5 104.5t125 60t141.5 20.5q57 0 111.5 -11t105.5 -36.5t89.5 -63.5t61.5 -95t23 -127q0 -108 -59 -188t-186 -144q156 -62 230.5 -148t74.5 -209q0 -169 -127 -277t-328 -108 q-207 0 -327.5 104.5t-120.5 276.5zM238 358q0 -136 86.5 -207t240.5 -71q149 0 237.5 74t88.5 202q0 44 -8.5 78t-30.5 63.5t-49.5 52.5t-75.5 48t-97.5 46t-127.5 50q-131 -52 -197.5 -138t-66.5 -198zM293 1051q0 -111 67.5 -171.5t260.5 -127.5q114 62 165.5 131.5 t51.5 163.5q0 116 -75 178.5t-198 62.5q-124 0 -198 -60t-74 -177z" />
<glyph unicode="9" horiz-adv-x="1062" d="M113 942q0 102 33.5 186.5t90.5 139.5t131.5 85.5t157.5 30.5q202 0 308 -146.5t106 -397.5q0 -156 -30 -277.5t-86 -211.5t-148 -161.5t-202 -122.5t-263 -100l-29 94q147 44 257.5 100t196.5 133.5t132.5 181.5t52.5 235h-4q-118 -197 -336 -197q-159 0 -263.5 114 t-104.5 314zM233 940q0 -326 271 -326q186 0 315 211q-3 233 -72 345t-219 112q-138 0 -216.5 -88t-78.5 -254z" />
<glyph unicode=":" horiz-adv-x="573" d="M188 74q0 42 27.5 69t71.5 27q45 0 71.5 -27t26.5 -69t-26.5 -69.5t-71.5 -27.5q-44 0 -71.5 27.5t-27.5 69.5zM188 872q0 42 27.5 69.5t71.5 27.5q45 0 71.5 -27.5t26.5 -69.5t-26.5 -69t-71.5 -27q-44 0 -71.5 27t-27.5 69z" />
<glyph unicode=";" horiz-adv-x="573" d="M141 -309l92 299q-47 26 -47 84q0 41 28.5 68.5t72.5 27.5q46 0 72 -27t26 -69q0 -28 -6.5 -49.5t-26.5 -61.5l-127 -272h-84zM188 872q0 42 27.5 69.5t71.5 27.5q45 0 71.5 -27.5t26.5 -69.5t-26.5 -69t-71.5 -27q-44 0 -71.5 27t-27.5 69z" />
<glyph unicode="&#x3c;" d="M143 631v102l711 338l45 -94l-633 -295l635 -291l-47 -98z" />
<glyph unicode="=" d="M143 406v106h738v-106h-738zM143 762v106h738v-106h-738z" />
<glyph unicode="&#x3e;" d="M123 391l635 291l-633 295l45 94l711 -338v-102l-711 -338z" />
<glyph unicode="?" horiz-adv-x="1085" d="M133 1235q163 190 399 190q163 0 256 -83t93 -203q0 -65 -20.5 -117.5t-54 -88t-73.5 -66.5t-79.5 -62t-73 -66t-54 -86.5t-20.5 -115.5v-138h-111v154q0 73 20 131.5t52 97t70.5 71t77.5 60.5t71 58t52 71.5t20 92.5q0 85 -66 137.5t-172 52.5q-174 0 -307 -151zM352 74 q0 42 27.5 69t71.5 27q45 0 71.5 -27t26.5 -69t-26.5 -69.5t-71.5 -27.5q-44 0 -71.5 27.5t-27.5 69.5z" />
<glyph unicode="@" horiz-adv-x="2088" d="M174 496q0 191 66 361t184.5 295.5t295 199t384.5 73.5q195 0 351.5 -64.5t255.5 -174.5t151.5 -252.5t52.5 -302.5q0 -294 -102 -448t-265 -154q-105 0 -170 57t-80 137h-8q-33 -78 -104.5 -129t-184.5 -51q-154 0 -254 115t-100 319q0 101 26 185t69.5 140.5t101 95 t119 56t124.5 17.5q86 0 148.5 -16t138.5 -52v-553q0 -116 46.5 -171.5t125.5 -55.5q53 0 96.5 26t79 83t55 157.5t19.5 237.5q0 198 -80.5 355t-239.5 250t-372 93q-185 0 -338.5 -65.5t-255.5 -178t-158.5 -263.5t-56.5 -322q0 -241 96.5 -425.5t277 -287t418.5 -102.5 q215 0 408 71l33 -96q-109 -38 -210.5 -57t-232.5 -19q-269 0 -474 108t-321 317t-116 491zM764 477q0 -165 69.5 -251.5t186.5 -86.5q51 0 95 19t73.5 48.5t47.5 57t28 53.5v525q-82 35 -174 35q-138 0 -232 -106t-94 -294z" />
<glyph unicode="A" horiz-adv-x="1116" d="M20 0l461 1403h154l461 -1403h-127l-121 379h-584l-121 -379h-123zM297 481h518l-256 813h-4z" />
<glyph unicode="B" horiz-adv-x="1239" d="M225 0v1403h328q82 0 151.5 -10t133.5 -34.5t108.5 -62.5t71 -98.5t26.5 -138.5q0 -132 -66 -208t-175 -101v-5q48 -8 90 -23t82 -42.5t68.5 -65t45.5 -93.5t17 -124q0 -104 -39.5 -181.5t-111.5 -124t-166 -69t-211 -22.5h-353zM346 102h260q79 0 143 14.5t117.5 47 t83 90.5t29.5 139q0 155 -88.5 226t-237.5 71h-307v-588zM346 791h285q139 0 214 68.5t75 193.5q0 247 -338 247h-236v-509z" />
<glyph unicode="C" horiz-adv-x="1138" d="M143 702q0 140 28 258t78 203t118.5 144.5t149.5 88.5t171 29q216 0 367 -125l-74 -83q-64 54 -131 79t-154 25q-89 0 -164.5 -35t-135 -107t-93 -194t-33.5 -283q0 -157 33 -277.5t92 -193.5t136 -110t169 -37q177 0 310 113l67 -84q-150 -136 -383 -136q-119 0 -219 47 t-174.5 136.5t-116 228.5t-41.5 313z" />
<glyph unicode="D" horiz-adv-x="1304" d="M225 0v1403h275q78 0 143.5 -7.5t135 -27.5t124 -52.5t104 -86t82.5 -124t52.5 -170.5t19.5 -222t-20.5 -223.5t-55 -174t-85 -128.5t-106 -91t-122 -57t-128.5 -30.5t-130 -8.5h-289zM346 102h180q68 0 126 10.5t117.5 35t105.5 70t83 111t56.5 163.5t19.5 221 q0 109 -15.5 196t-42 147.5t-66.5 105.5t-82.5 71t-97.5 41.5t-104 20.5t-110 5h-170v-1198z" />
<glyph unicode="E" horiz-adv-x="1052" d="M225 0v1403h709l-14 -103h-574v-522h498v-102h-498v-574h604v-102h-725z" />
<glyph unicode="F" horiz-adv-x="1005" d="M225 0v1403h699l-15 -103h-563v-546h488v-103h-488v-651h-121z" />
<glyph unicode="G" horiz-adv-x="1280" d="M143 702q0 174 48.5 314t130.5 228t185 134.5t216 46.5q129 0 219.5 -33.5t169.5 -105.5l-74 -76q-126 111 -313 111q-91 0 -170 -35.5t-144 -107t-103 -194t-38 -282.5q0 -310 117 -465t320 -155q176 0 311 74v501h-287l-14 103h420v-668q-202 -115 -437 -115 q-253 0 -405 186t-152 539z" />
<glyph unicode="H" horiz-adv-x="1351" d="M225 0v1403h121v-612h660v612h120v-1403h-120v688h-660v-688h-121z" />
<glyph unicode="I" horiz-adv-x="571" d="M225 0v1403h121v-1403h-121z" />
<glyph unicode="J" horiz-adv-x="589" d="M10 -182q132 52 183 130t51 220v1235h121v-1231q0 -101 -18 -172t-59.5 -123t-98.5 -87t-146 -69z" />
<glyph unicode="K" horiz-adv-x="1116" d="M225 0v1403h121v-1403h-121zM354 754l580 649h147l-581 -643l616 -760h-153z" />
<glyph unicode="L" horiz-adv-x="972" d="M225 0v1403h121v-1292h586l-17 -111h-690z" />
<glyph unicode="M" horiz-adv-x="1595" d="M143 0l133 1403h168l351 -1088h8l344 1088h170l135 -1403h-117l-71 711q-32 315 -47 561h-5l-356 -1106h-119l-364 1106h-4q-17 -243 -47 -561l-64 -711h-115z" />
<glyph unicode="N" horiz-adv-x="1376" d="M225 0v1403h160l664 -1270h4q-17 257 -17 440v830h115v-1403h-162l-661 1268h-4q16 -200 16 -441v-827h-115z" />
<glyph unicode="O" horiz-adv-x="1398" d="M143 698q0 339 153 533t404 194q252 0 403.5 -190t151.5 -535q0 -337 -152.5 -530t-402.5 -193q-253 0 -405 188.5t-152 532.5zM270 698q0 -306 116 -461t314 -155t313 156.5t115 461.5q0 307 -114.5 464t-313.5 157q-200 0 -315 -158t-115 -465z" />
<glyph unicode="P" horiz-adv-x="1165" d="M225 0v1403h320q265 0 401.5 -100.5t136.5 -317.5q0 -438 -534 -438h-203v-547h-121zM346 649h213q94 0 162.5 15.5t123.5 52t83 103.5t28 163q0 166 -102.5 241.5t-296.5 75.5h-211v-651z" />
<glyph unicode="Q" horiz-adv-x="1398" d="M143 698q0 339 153 533t404 194q252 0 403.5 -190t151.5 -535q0 -503 -327 -653l2 -4q120 0 232.5 -33t185.5 -96l-80 -104q-111 98 -241.5 135t-326.5 37q-254 0 -405.5 186t-151.5 530zM270 698q0 -306 116 -461t314 -155t313 156.5t115 461.5q0 307 -114.5 464 t-313.5 157q-200 0 -315 -158t-115 -465z" />
<glyph unicode="R" horiz-adv-x="1198" d="M225 0v1403h348q506 0 506 -381q0 -303 -354 -375l422 -647h-146l-401 631h-254v-631h-121zM346 731h242q364 0 364 291q0 147 -90 212.5t-282 65.5h-234v-569z" />
<glyph unicode="S" horiz-adv-x="1112" d="M72 147l71 84q165 -149 394 -149q163 0 259.5 79.5t96.5 221.5q0 126 -77.5 191.5t-272.5 125.5q-221 69 -315.5 153.5t-94.5 233.5q0 152 118 245t306 93q136 0 232.5 -37.5t183.5 -111.5l-74 -80q-74 65 -153.5 95t-184.5 30q-135 0 -219 -60t-84 -169 q0 -108 71.5 -167.5t264.5 -119.5q82 -25 140.5 -49t115.5 -59t92 -77t56.5 -101t21.5 -132q0 -185 -130 -297.5t-353 -112.5q-286 0 -465 170z" />
<glyph unicode="T" horiz-adv-x="1021" d="M41 1296v107h950l-14 -107h-402v-1296h-120v1296h-414z" />
<glyph unicode="U" horiz-adv-x="1335" d="M205 446v957h121v-950q0 -183 86 -277t256 -94t256 94t86 277v950h120v-957q0 -221 -120 -345t-342 -124q-223 0 -343 123t-120 346z" />
<glyph unicode="V" horiz-adv-x="1114" d="M31 1403h131l395 -1270h4l395 1270h127l-456 -1403h-135z" />
<glyph unicode="W" horiz-adv-x="1630" d="M51 1403h121l260 -1272h4l312 1272h133l315 -1272h4l264 1272h115l-305 -1403h-152l-307 1249h-4l-307 -1249h-148z" />
<glyph unicode="X" horiz-adv-x="1062" d="M10 0l445 754l-389 649h143l317 -565h4l330 565h135l-395 -643l453 -760h-144l-381 672h-4l-377 -672h-137z" />
<glyph unicode="Y" horiz-adv-x="1058" d="M10 1403h137l383 -725h5l385 725h129l-457 -836v-567h-121v565z" />
<glyph unicode="Z" horiz-adv-x="1044" d="M72 0v100l747 1198h-672v105h805v-100l-745 -1197h731l-14 -106h-852z" />
<glyph unicode="[" horiz-adv-x="665" d="M184 -207v1835h338v-90h-231v-1655h231v-90h-338z" />
<glyph unicode="\" horiz-adv-x="1064" d="M246 1622l100 25l473 -1842l-100 -24z" />
<glyph unicode="]" horiz-adv-x="665" d="M143 -117h232v1655h-232v90h338v-1835h-338v90z" />
<glyph unicode="^" horiz-adv-x="1064" d="M92 1079l391 625h99l391 -625h-131l-310 510l-309 -510h-131z" />
<glyph unicode="_" horiz-adv-x="1064" d="M82 -133h901v-107h-901v107z" />
<glyph unicode="`" horiz-adv-x="561" d="M61 1442l66 106l373 -215l-41 -69z" />
<glyph unicode="a" horiz-adv-x="1067" d="M92 299q0 165 124.5 252.5t344.5 87.5h184v106q0 128 -60.5 188t-195.5 60t-288 -59l-33 92q175 68 338 68q356 0 356 -342v-519q0 -84 24.5 -121t78.5 -53l-27 -82q-77 13 -120.5 53.5t-57.5 127.5v2q-55 -92 -143 -137.5t-195 -45.5q-154 0 -242 88t-88 234zM217 305 q0 -110 60.5 -168.5t173.5 -58.5q97 0 172.5 52t121.5 142v275h-178q-350 0 -350 -242z" />
<glyph unicode="b" horiz-adv-x="1187" d="M225 0v1507l117 15v-617q127 189 328 189q193 0 289 -144.5t96 -408.5q0 -256 -110.5 -410t-303.5 -154q-97 0 -171 40.5t-134 127.5l-8 -145h-103zM342 264q115 -184 281 -184q149 0 228 116t79 345q0 452 -283 452q-177 0 -305 -217v-512z" />
<glyph unicode="c" horiz-adv-x="980" d="M133 530q0 255 124.5 409.5t332.5 154.5q185 0 319 -111l-61 -80q-114 90 -258 90q-152 0 -242 -118.5t-90 -344.5q0 -223 89.5 -337.5t242.5 -114.5q146 0 262 94l57 -82q-137 -113 -327 -113q-209 0 -329 148t-120 405z" />
<glyph unicode="d" horiz-adv-x="1193" d="M133 530q0 254 113 409t301 155q102 0 174 -37.5t131 -114.5v580l117 -15v-1507h-103l-14 162q-67 -99 -145.5 -142t-178.5 -43q-193 0 -294 146.5t-101 406.5zM258 530q0 -219 76 -334.5t215 -115.5q182 0 303 207v524q-108 182 -283 182q-147 0 -229 -119.5t-82 -343.5 z" />
<glyph unicode="e" horiz-adv-x="1101" d="M133 530q0 255 117 409.5t315 154.5t306 -140t108 -387q0 -38 -4 -78h-721q10 -206 103.5 -308.5t238.5 -102.5q86 0 154 25t135 83l55 -80q-141 -129 -348 -129q-218 0 -338.5 148.5t-120.5 404.5zM254 582h608q-3 199 -78.5 305t-218.5 106q-135 0 -218.5 -102.5 t-92.5 -308.5z" />
<glyph unicode="f" horiz-adv-x="671" d="M51 975v96h199v182q0 126 76 197.5t221 71.5q129 0 248 -58l-39 -90q-99 47 -203 47q-99 0 -142.5 -42t-43.5 -132v-176h282l-14 -96h-268v-975h-117v975h-199z" />
<glyph unicode="g" horiz-adv-x="1040" d="M72 -127l106 2q0 -106 77 -153.5t253 -47.5q165 0 250.5 52.5t85.5 156.5q0 83 -59.5 129.5t-166.5 46.5h-163q-139 0 -211 58.5t-72 148.5q0 46 28.5 91.5t80.5 78.5q-77 45 -120.5 119.5t-43.5 175.5q0 159 105.5 261t283.5 102q179 0 283.5 17.5t185.5 53.5l35 -110 q-95 -33 -283 -33q78 -38 124 -112t46 -177q0 -162 -106 -260t-281 -98q-77 0 -150 26q-31 -22 -53 -56.5t-22 -63.5q0 -55 39 -85t137 -30h168q162 0 250 -80t88 -195q0 -153 -121.5 -232t-337.5 -79q-78 0 -140 7.5t-119 27.5t-95 52.5t-60 84.5t-22 121zM236 731 q0 -122 72.5 -193t199.5 -71q128 0 199 68.5t71 195.5q0 130 -68 200t-202 70q-129 0 -200.5 -73.5t-71.5 -196.5z" />
<glyph unicode="h" horiz-adv-x="1189" d="M225 0v1507l117 15v-621q132 193 348 193q150 0 217.5 -82t67.5 -244v-768h-117v735q0 139 -46 199.5t-153 60.5q-94 0 -175 -66t-142 -167v-762h-117z" />
<glyph unicode="i" horiz-adv-x="546" d="M184 1399q0 37 24.5 61.5t63.5 24.5t63.5 -24.5t24.5 -61.5t-24.5 -61.5t-63.5 -24.5t-63.5 24.5t-24.5 61.5zM215 0v1071h117v-1071h-117z" />
<glyph unicode="j" horiz-adv-x="546" d="M-10 -328q66 33 102.5 58.5t67.5 66t43 97.5t12 143v1034h117v-1030q0 -63 -7 -114t-17.5 -89.5t-32 -71.5t-41.5 -55.5t-55.5 -47t-65 -40.5t-78.5 -41zM184 1399q0 37 24.5 61.5t63.5 24.5t63.5 -24.5t24.5 -61.5t-24.5 -61.5t-63.5 -24.5t-63.5 24.5t-24.5 61.5z" />
<glyph unicode="k" horiz-adv-x="989" d="M225 0v1507l117 15v-1522h-117zM354 586l441 485h143l-449 -481l500 -590h-145z" />
<glyph unicode="l" horiz-adv-x="555" d="M205 176v1331l117 15v-1342q0 -102 84 -102q35 0 75 14l33 -84q-57 -31 -129 -31q-83 0 -131.5 48t-48.5 151z" />
<glyph unicode="m" horiz-adv-x="1761" d="M225 0v1071h101l8 -182q138 205 338 205q218 0 260 -205q140 205 342 205q142 0 207 -82t65 -244v-768h-116v748q0 129 -45 188t-140 59q-85 0 -162 -65t-139 -164v-766h-117v748q0 129 -44.5 188t-139.5 59q-85 0 -162 -65t-139 -164v-766h-117z" />
<glyph unicode="n" horiz-adv-x="1189" d="M225 0v1071h101l8 -182q135 205 356 205q150 0 217.5 -82t67.5 -244v-768h-117v748q0 130 -47.5 188.5t-151.5 58.5q-93 0 -174 -65t-143 -164v-766h-117z" />
<glyph unicode="o" horiz-adv-x="1171" d="M133 535q0 258 122.5 408.5t334.5 150.5q210 0 329 -148t119 -407q0 -258 -121.5 -410t-332.5 -152t-331 149.5t-120 408.5zM258 535q0 -223 85.5 -341t240.5 -118q157 0 243 118t86 345q0 223 -84.5 339.5t-238.5 116.5q-158 0 -245 -116.5t-87 -343.5z" />
<glyph unicode="p" horiz-adv-x="1187" d="M225 -420v1491h101l8 -176q133 199 340 199q193 0 287 -144.5t94 -408.5q0 -258 -107 -411t-299 -153q-193 0 -307 158v-538zM342 264q52 -83 127.5 -133.5t161.5 -50.5q299 0 299 461q0 228 -68.5 340t-210.5 112q-181 0 -309 -217v-512z" />
<glyph unicode="q" horiz-adv-x="1193" d="M133 530q0 254 113 409t301 155q102 0 174 -37.5t131 -114.5l14 129h103v-1491l-117 17v565q-67 -99 -145.5 -142t-178.5 -43q-192 0 -293.5 147t-101.5 406zM258 530q0 -219 76.5 -334.5t214.5 -115.5q182 0 303 207v524q-108 182 -283 182q-145 0 -228 -119.5 t-83 -343.5z" />
<glyph unicode="r" horiz-adv-x="755" d="M225 0v1071h101l12 -235q47 135 121 196.5t186 61.5q53 0 100 -13l-22 -116q-44 12 -94 12q-192 0 -287 -313v-664h-117z" />
<glyph unicode="s" horiz-adv-x="937" d="M61 109l66 79q138 -112 317 -112q125 0 201 52t76 146q0 98 -58 147t-227 93q-160 42 -239.5 112.5t-79.5 190.5q0 124 101.5 200.5t266.5 76.5q186 0 320 -90l-53 -86q-119 77 -269 77q-112 0 -178.5 -46.5t-66.5 -123.5q0 -86 58 -132.5t204 -84.5q86 -22 147 -49 t107.5 -64.5t69 -89.5t22.5 -120q0 -76 -33.5 -136.5t-90.5 -97t-127.5 -55.5t-150.5 -19q-115 0 -214.5 36t-168.5 96z" />
<glyph unicode="t" horiz-adv-x="747" d="M51 981v90h199v256l117 14v-270h280l-12 -90h-268v-709q0 -100 38.5 -147t122.5 -47q78 0 162 49l47 -82q-100 -68 -225 -68q-129 0 -195.5 75t-66.5 212v717h-199z" />
<glyph unicode="u" horiz-adv-x="1177" d="M215 301v770h117v-756q0 -127 46 -183t142 -56q92 0 173 65t143 164v766h116v-1071h-100l-8 182q-135 -205 -344 -205q-285 0 -285 324z" />
<glyph unicode="v" horiz-adv-x="958" d="M31 1071h127l325 -962h4l318 962h123l-377 -1071h-137z" />
<glyph unicode="w" horiz-adv-x="1433" d="M51 1071h121l223 -971h4l256 971h133l248 -969h4l226 969h116l-262 -1071h-162l-237 948h-4l-242 -948h-158z" />
<glyph unicode="x" horiz-adv-x="935" d="M20 0l377 571l-327 500h141l256 -422h4l260 422h137l-329 -496l376 -575h-141l-305 494h-6l-303 -494h-140z" />
<glyph unicode="y" horiz-adv-x="954" d="M31 1071h129l329 -977h5l305 977h125l-361 -1075q-31 -92 -64.5 -157t-84.5 -120.5t-124 -89.5t-171 -49l-17 96q153 29 228.5 104t122.5 220h-41z" />
<glyph unicode="z" horiz-adv-x="870" d="M61 0v90l601 881h-551v100h688v-90l-598 -881h594l-15 -100h-719z" />
<glyph unicode="{" horiz-adv-x="665" d="M92 664v104q81 0 118.5 39.5t37.5 128.5v473q0 128 71 178.5t213 50.5v-90q-98 0 -138 -29t-40 -112v-475q0 -86 -29.5 -138t-113.5 -75v-6q72 -18 107.5 -68t35.5 -141v-479q0 -83 40 -112.5t138 -29.5v-90q-142 0 -213 51t-71 179v479q0 162 -156 162z" />
<glyph unicode="|" horiz-adv-x="778" d="M338 -207v1847h102v-1847h-102z" />
<glyph unicode="}" horiz-adv-x="665" d="M133 -117q98 0 138 29.5t40 112.5v479q0 174 144 209v6q-84 23 -114 75t-30 138v475q0 83 -40 112t-138 29v90q142 0 213.5 -50.5t71.5 -178.5v-473q0 -90 37 -129t118 -39v-104q-155 0 -155 -162v-479q0 -128 -71.5 -179t-213.5 -51v90z" />
<glyph unicode="~" d="M123 602q37 70 100.5 109t134.5 39q51 0 111.5 -23t113.5 -46.5t85 -23.5q46 0 86.5 24t68.5 67l78 -54q-78 -141 -233 -141q-62 0 -170 46t-144 46q-97 0 -155 -90z" />
<glyph unicode="&#xa1;" horiz-adv-x="573" d="M188 872q0 42 27 69.5t72 27.5q44 0 71 -27.5t27 -69.5t-27 -69t-71 -27q-45 0 -72 27t-27 69zM219 -403l21 950h94l20 -950h-135z" />
<glyph unicode="&#xa2;" d="M129 530q0 242 107.5 393.5t298.5 168.5v301h98v-301q155 -16 262 -109l-61 -80q-106 90 -256 90q-152 0 -238 -118t-86 -345q0 -220 89 -336t237 -116q75 0 135.5 22t122.5 74l57 -84q-106 -92 -262 -108v-289h-101v287q-190 13 -296.5 159.5t-106.5 390.5z" />
<glyph unicode="&#xa3;" d="M100 0v102q80 46 112 98t32 140v340h-133v96h133v271q0 155 97.5 246t256.5 91q187 0 320 -149l-80 -64q-107 113 -240 113q-105 0 -171.5 -60t-66.5 -177v-271h390v-96h-390v-309q0 -107 -27.5 -162t-88.5 -96v-7h626l-14 -106h-756z" />
<glyph unicode="&#xa4;" d="M43 285l170 170q-80 104 -80 243q0 142 78 242l-168 170l74 74l170 -170q94 69 227 69q125 0 223 -69l168 168l76 -72l-166 -168q80 -104 80 -244q0 -141 -82 -247l168 -164l-76 -74l-170 166q-98 -66 -221 -66q-131 0 -227 68l-170 -170zM250 698q0 -132 70 -210 t194 -78t194 78t70 210t-70 210.5t-194 78.5t-194 -78.5t-70 -210.5z" />
<glyph unicode="&#xa5;" d="M23 1362h137l352 -637h6l352 637h131l-385 -653h224v-97h-269v-180h269v-96h-269v-336h-118v336h-269v96h269v180h-269v97h222z" />
<glyph unicode="&#xa6;" horiz-adv-x="778" d="M338 -207v727h102v-727h-102zM338 911v729h102v-729h-102z" />
<glyph unicode="&#xa7;" d="M129 -29l66 80q120 -92 290 -92q106 0 171 42t65 112q0 29 -3 48t-17 38.5t-30 33t-55.5 33.5t-80 37.5t-115.5 48.5q-108 44 -167 83t-89.5 93t-30.5 131q0 140 160 244q-58 41 -81.5 86t-23.5 103q0 127 99.5 198.5t247.5 71.5q195 0 348 -109l-66 -79 q-68 49 -134.5 69.5t-147.5 20.5q-105 0 -166.5 -44.5t-61.5 -115.5q0 -22 2 -38.5t10 -32.5t15 -26.5t27.5 -24.5t36 -23t51 -25t63 -27t81.5 -33q1 -1 2.5 -1.5t2.5 -0.5q158 -64 227.5 -131t69.5 -178q0 -142 -158 -246q56 -39 79.5 -83t23.5 -105q0 -87 -50.5 -149 t-129 -90.5t-175.5 -28.5q-202 0 -356 110zM252 676q0 -97 50.5 -137t259.5 -128q68 -29 108 -46q106 77 106 186q0 41 -9.5 67.5t-30.5 52t-73.5 53t-117.5 56.5t-185 76q-108 -77 -108 -180z" />
<glyph unicode="&#xa8;" horiz-adv-x="671" d="M61 1368q0 35 22.5 57.5t59.5 22.5t59.5 -22.5t22.5 -57.5t-22.5 -57.5t-59.5 -22.5t-59.5 22.5t-22.5 57.5zM446 1368q0 35 22.5 57.5t59.5 22.5t59.5 -22.5t22.5 -57.5t-22.5 -57.5t-59.5 -22.5t-59.5 22.5t-22.5 57.5z" />
<glyph unicode="&#xa9;" horiz-adv-x="1638" d="M225 895q0 122 47 232t126 189t189 126t232 47t232.5 -46.5t189.5 -126t125.5 -189.5t46.5 -232t-46.5 -232.5t-125.5 -189.5t-189.5 -125.5t-232.5 -46.5t-232 46.5t-189.5 125.5t-126 189.5t-46.5 232.5zM315 895q0 -216 145.5 -364t358.5 -148q214 0 358 148t144 364 t-144 365t-358 149q-140 0 -256 -68t-182 -186t-66 -260zM532 901q0 165 83.5 256.5t207.5 91.5q117 0 203 -67l-53 -74q-64 53 -146 53q-84 0 -136 -62t-52 -198q0 -135 52 -197.5t140 -62.5q81 0 158 57l51 -71q-91 -78 -213 -78q-130 0 -212.5 92.5t-82.5 259.5z" />
<glyph unicode="&#xaa;" horiz-adv-x="1228" d="M227 891q0 131 107 201.5t295 70.5h151v78q0 101 -50 147t-163 46q-115 0 -243 -50l-33 82q150 56 291 56q162 0 233.5 -69.5t71.5 -205.5v-411q0 -67 16.5 -96.5t59.5 -41.5l-23 -69q-66 13 -100 43t-47 96q-96 -139 -283 -139q-131 0 -207 72t-76 190zM254 0v106h698 v-106h-698zM346 897q0 -87 49.5 -133.5t139.5 -46.5q78 0 141 40.5t104 112.5v211h-145q-289 0 -289 -184z" />
<glyph unicode="&#xab;" horiz-adv-x="1064" d="M143 557v84l338 422l72 -49l-279 -416l279 -414l-72 -49zM512 557v84l338 422l72 -49l-279 -416l279 -414l-72 -49z" />
<glyph unicode="&#xac;" d="M143 586v106h738v-354h-113v248h-625z" />
<glyph unicode="&#xad;" horiz-adv-x="798" d="M135 586v106h529v-106h-529z" />
<glyph unicode="&#xae;" horiz-adv-x="1312" d="M164 1006q0 205 142.5 349t350.5 144q103 0 194.5 -39t156.5 -105t103 -157t38 -192q0 -207 -141.5 -347.5t-350.5 -140.5t-351 140.5t-142 347.5zM246 1006q0 -175 119 -294.5t292 -119.5q174 0 289 119t115 295t-115.5 297.5t-288.5 121.5t-292 -122t-119 -297z M467 733v553h156q119 0 176 -39.5t57 -122.5q0 -122 -139 -153l188 -238h-114l-173 228h-63v-228h-88zM555 1032h76q135 0 135 92q0 47 -36 67.5t-112 20.5h-63v-180z" />
<glyph unicode="&#xaf;" horiz-adv-x="602" d="M61 1366v96h480v-96h-480z" />
<glyph unicode="&#xb0;" d="M143 1135q0 132 89 211t212 79t208 -79t85 -213q0 -133 -85.5 -212t-207.5 -79q-124 0 -212.5 78.5t-88.5 214.5zM256 1135q0 -93 52 -148t136 -55q83 0 132 54.5t49 146.5q0 94 -49 148t-132 54q-84 0 -136 -53.5t-52 -146.5z" />
<glyph unicode="&#xb1;" d="M143 0v109h738v-109h-738zM143 586v104h310v316h118v-316h310v-104h-310v-275h-118v275h-310z" />
<glyph unicode="&#xb2;" horiz-adv-x="819" d="M121 1376q130 146 297 146q117 0 191.5 -63.5t74.5 -166.5q0 -39 -11 -77t-40.5 -82.5t-58 -81t-86.5 -94.5t-102.5 -100t-127.5 -118h440l-12 -86h-557v74q231 223 305 309q139 158 139 252q0 66 -43 106t-116 40q-120 0 -221 -107z" />
<glyph unicode="&#xb3;" horiz-adv-x="819" d="M82 758l63 59q94 -94 222 -94q96 0 152 45.5t56 126.5q0 85 -56 125.5t-154 40.5h-66l16 80h43q74 0 133.5 40.5t59.5 114.5q0 64 -43.5 101t-124.5 37q-113 0 -225 -84l-52 61q126 111 283 111q123 0 198 -63.5t75 -153.5q0 -66 -45.5 -118.5t-114.5 -70.5v-4 q78 -19 130 -75.5t52 -141.5q0 -113 -87.5 -184.5t-227.5 -71.5q-74 0 -152.5 32t-134.5 87z" />
<glyph unicode="&#xb4;" horiz-adv-x="561" d="M61 1333l373 215l66 -106l-398 -178z" />
<glyph unicode="&#xb5;" horiz-adv-x="1187" d="M225 -416v1487h117v-741q0 -131 53 -192.5t146 -61.5q83 0 163.5 65t141.5 164v766h117v-715q0 -176 57 -356l-100 -18q-42 91 -56 223q-137 -228 -338 -228q-150 0 -211 121l-6 -2q25 -125 25 -223v-276z" />
<glyph unicode="&#xb6;" horiz-adv-x="1392" d="M184 1026q0 166 122.5 271.5t346.5 105.5h453v-1809l-109 -14v1733h-235v-1719l-109 -14v1073q-234 3 -351.5 106t-117.5 267z" />
<glyph unicode="&#xb7;" horiz-adv-x="573" d="M188 647q0 42 27.5 69t71.5 27q45 0 71.5 -27t26.5 -69t-26.5 -69t-71.5 -27q-44 0 -71.5 27t-27.5 69z" />
<glyph unicode="&#xb8;" horiz-adv-x="518" d="M61 -424q5 11 13 25t17.5 30.5t14.5 24.5q56 -29 119 -29q115 0 115 82q0 49 -41 68.5t-121 21.5l17 234h90v-170q172 -17 172 -156q0 -82 -62 -126t-159 -44q-105 0 -175 39z" />
<glyph unicode="&#xb9;" horiz-adv-x="819" d="M158 1341l295 166h84v-854h-109v742l-223 -125z" />
<glyph unicode="&#xba;" horiz-adv-x="1228" d="M227 1075q0 206 105 326.5t286 120.5q178 0 279.5 -118.5t101.5 -324.5t-104 -328t-283 -122t-282 120t-103 326zM264 -6v106h699v-106h-699zM342 1075q0 -177 70 -267.5t200 -90.5q131 0 203 91.5t72 270.5q0 174 -70.5 264.5t-198.5 90.5q-133 0 -204.5 -90t-71.5 -269 z" />
<glyph unicode="&#xbb;" horiz-adv-x="1064" d="M143 184l277 414l-277 416l72 49l338 -422v-84l-338 -422zM512 184l276 414l-276 416l72 49l338 -422v-84l-338 -422z" />
<glyph unicode="&#xbc;" horiz-adv-x="1843" d="M158 1237l295 166h84v-854h-109v741l-223 -125zM483 -117l830 1639l88 -43l-828 -1639zM1149 209v72l283 593l98 -32l-260 -545h276l10 238h91v-238h112v-88h-112v-209h-101v209h-397z" />
<glyph unicode="&#xbd;" horiz-adv-x="1843" d="M158 1237l295 166h84v-854h-109v741l-223 -125zM483 -117l830 1639l88 -43l-828 -1639zM1225 723q129 145 297 145q117 0 191.5 -63t74.5 -166q0 -39 -11 -77t-40.5 -82.5t-58 -81t-86.5 -94.5t-102.5 -100t-127.5 -118h440l-12 -86h-557v74q231 223 305 309 q139 158 139 252q0 66 -43 105.5t-116 39.5q-122 0 -222 -106z" />
<glyph unicode="&#xbe;" horiz-adv-x="1843" d="M80 653l63 60q95 -95 222 -95q96 0 152 46t56 127q0 84 -56 124.5t-155 40.5h-65l16 80h43q74 0 133.5 41t59.5 115q0 64 -43.5 100.5t-124.5 36.5q-113 0 -225 -84l-52 62q125 110 283 110q123 0 197.5 -63.5t74.5 -153.5q0 -66 -45 -118t-114 -70v-4q78 -19 130 -75.5 t52 -141.5q0 -113 -87.5 -184.5t-227.5 -71.5q-75 0 -153 31.5t-134 86.5zM500 -117l829 1639l88 -43l-827 -1639zM1141 209v72l282 593l99 -32l-260 -545h276l10 238h90v-238h113v-88h-113v-209h-100v209h-397z" />
<glyph unicode="&#xbf;" horiz-adv-x="1085" d="M205 -133q0 65 20.5 118t54 88.5t73.5 67t79.5 61t73 62.5t54 80t20.5 105v98h110v-115q0 -67 -20 -121t-52 -90.5t-70.5 -67.5t-77 -59t-70.5 -58t-52 -72t-20 -93q0 -85 65.5 -137.5t171.5 -52.5q174 0 307 151l80 -61q-164 -191 -399 -191q-163 0 -255.5 83t-92.5 204 zM535 872q0 42 26.5 69.5t71.5 27.5q44 0 71 -27.5t27 -69.5t-27 -69t-71 -27q-45 0 -71.5 27t-26.5 69z" />
<glyph unicode="&#xc0;" horiz-adv-x="1116" d="M20 0l461 1403h154l461 -1403h-127l-121 379h-584l-121 -379h-123zM297 481h518l-256 813h-4zM324 1704l65 106l363 -190l-41 -70z" />
<glyph unicode="&#xc1;" horiz-adv-x="1116" d="M20 0l461 1403h154l461 -1403h-127l-121 379h-584l-121 -379h-123zM297 481h518l-256 813h-4zM365 1640l362 191l66 -107l-387 -153z" />
<glyph unicode="&#xc2;" horiz-adv-x="1116" d="M20 0l461 1403h154l461 -1403h-127l-121 379h-584l-121 -379h-123zM262 1616l266 201h62l264 -201l-53 -62l-242 154l-242 -154zM297 481h518l-256 813h-4z" />
<glyph unicode="&#xc3;" horiz-adv-x="1116" d="M20 0l461 1403h154l461 -1403h-127l-121 379h-584l-121 -379h-123zM258 1624q64 150 188 150q38 0 74.5 -14.5t59 -32t48 -32t44.5 -14.5q34 0 59 21.5t51 66.5l74 -34q-66 -148 -190 -148q-42 0 -85.5 23t-79 46t-59.5 23q-35 0 -60 -22t-52 -68zM297 481h518l-256 813 h-4z" />
<glyph unicode="&#xc4;" horiz-adv-x="1116" d="M20 0l461 1403h154l461 -1403h-127l-121 379h-584l-121 -379h-123zM283 1634q0 35 22.5 57.5t59.5 22.5t59 -22t22 -58t-22 -58t-59 -22t-59.5 22.5t-22.5 57.5zM297 481h518l-256 813h-4zM668 1634q0 35 22.5 57.5t59.5 22.5q36 0 58.5 -22t22.5 -58t-22.5 -58 t-58.5 -22q-37 0 -59.5 22.5t-22.5 57.5z" />
<glyph unicode="&#xc5;" horiz-adv-x="1116" d="M20 0l461 1403h154l461 -1403h-127l-121 379h-584l-121 -379h-123zM297 481h518l-256 813h-4zM358 1706q0 83 55.5 134.5t143.5 51.5t143.5 -51.5t55.5 -134.5t-55.5 -134.5t-143.5 -51.5t-143.5 51.5t-55.5 134.5zM446 1706q0 -54 29.5 -85.5t81.5 -31.5t81.5 31.5 t29.5 85.5q0 55 -29 86t-82 31q-52 0 -81.5 -31.5t-29.5 -85.5z" />
<glyph unicode="&#xc6;" horiz-adv-x="1591" d="M0 0l547 1403h864l-14 -103h-670l137 -522h508v-102h-481l149 -574h469v-102h-561l-96 379h-586l-143 -379h-123zM305 481h520l-204 815h-5z" />
<glyph unicode="&#xc7;" horiz-adv-x="1138" d="M143 702q0 140 28 258t78 203t118.5 144.5t149.5 88.5t171 29q216 0 367 -125l-74 -83q-64 54 -131 79t-154 25q-89 0 -164.5 -35t-135 -107t-93 -194t-33.5 -283q0 -157 33 -277.5t92 -193.5t136 -110t169 -37q177 0 310 113l67 -84q-142 -128 -352 -136v-114 q172 -17 172 -156q0 -82 -62 -126t-159 -44q-104 0 -174 39l45 80q56 -29 119 -29q114 0 114 82q0 49 -41 68.5t-121 21.5l13 183q-220 24 -354 211t-134 509z" />
<glyph unicode="&#xc8;" horiz-adv-x="1052" d="M225 0v1403h709l-14 -103h-574v-522h498v-102h-498v-574h604v-102h-725zM362 1704l66 106l363 -190l-41 -70z" />
<glyph unicode="&#xc9;" horiz-adv-x="1052" d="M225 0v1403h709l-14 -103h-574v-522h498v-102h-498v-574h604v-102h-725zM383 1620l362 190l66 -106l-387 -154z" />
<glyph unicode="&#xca;" horiz-adv-x="1052" d="M225 0v1403h709l-14 -103h-574v-522h498v-102h-498v-574h604v-102h-725zM281 1616l266 201h61l264 -201l-53 -62l-241 154l-242 -154z" />
<glyph unicode="&#xcb;" horiz-adv-x="1052" d="M225 0v1403h709l-14 -103h-574v-522h498v-102h-498v-574h604v-102h-725zM303 1634q0 35 22.5 57.5t59.5 22.5t59.5 -22.5t22.5 -57.5t-22.5 -57.5t-59.5 -22.5t-59.5 22.5t-22.5 57.5zM688 1634q0 35 22.5 57.5t59.5 22.5t59.5 -22.5t22.5 -57.5t-22.5 -57.5t-59.5 -22.5 t-59.5 22.5t-22.5 57.5z" />
<glyph unicode="&#xcc;" horiz-adv-x="571" d="M72 1704l65 106l363 -190l-41 -70zM225 0v1403h121v-1403h-121z" />
<glyph unicode="&#xcd;" horiz-adv-x="571" d="M72 1620l362 190l66 -106l-387 -154zM225 0v1403h121v-1403h-121z" />
<glyph unicode="&#xce;" horiz-adv-x="571" d="M-10 1616l266 201h61l265 -201l-54 -62l-241 154l-242 -154zM225 0v1403h121v-1403h-121z" />
<glyph unicode="&#xcf;" horiz-adv-x="571" d="M10 1634q0 35 22.5 57.5t59.5 22.5t59.5 -22.5t22.5 -57.5t-22.5 -57.5t-59.5 -22.5t-59.5 22.5t-22.5 57.5zM225 0v1403h121v-1403h-121zM395 1634q0 35 22.5 57.5t59.5 22.5t59.5 -22.5t22.5 -57.5t-22.5 -57.5t-59.5 -22.5t-59.5 22.5t-22.5 57.5z" />
<glyph unicode="&#xd0;" horiz-adv-x="1304" d="M47 674v98h178v631h275q78 0 143.5 -7.5t135 -27.5t124 -52.5t104 -86t82.5 -124t52.5 -170.5t19.5 -222t-20.5 -223.5t-55 -174t-85 -128.5t-106 -91t-122 -57t-128.5 -30.5t-130 -8.5h-289v674h-178zM346 102h180q68 0 126 10.5t117.5 35t105.5 70t83 111t56.5 163.5 t19.5 221q0 109 -15.5 196t-42 147.5t-66.5 105.5t-82.5 71t-97.5 41.5t-104 20.5t-110 5h-170v-528h373v-98h-373v-572z" />
<glyph unicode="&#xd1;" horiz-adv-x="1376" d="M225 0v1403h160l664 -1270h4q-17 257 -17 440v830h115v-1403h-162l-661 1268h-4q16 -200 16 -441v-827h-115zM399 1624q64 150 189 150q38 0 74 -14.5t58.5 -32t48 -32t44.5 -14.5q34 0 59.5 21.5t51.5 66.5l73 -34q-66 -148 -190 -148q-42 0 -85 23t-78.5 46t-59.5 23 q-35 0 -60.5 -22t-52.5 -68z" />
<glyph unicode="&#xd2;" horiz-adv-x="1398" d="M143 698q0 339 153 533t404 194q252 0 403.5 -190t151.5 -535q0 -337 -152.5 -530t-402.5 -193q-253 0 -405 188.5t-152 532.5zM270 698q0 -306 116 -461t314 -155t313 156.5t115 461.5q0 307 -114.5 464t-313.5 157q-200 0 -315 -158t-115 -465zM465 1704l65 106 l363 -190l-41 -70z" />
<glyph unicode="&#xd3;" horiz-adv-x="1398" d="M143 698q0 339 153 533t404 194q252 0 403.5 -190t151.5 -535q0 -337 -152.5 -530t-402.5 -193q-253 0 -405 188.5t-152 532.5zM270 698q0 -306 116 -461t314 -155t313 156.5t115 461.5q0 307 -114.5 464t-313.5 157q-200 0 -315 -158t-115 -465zM506 1620l362 190 l66 -106l-387 -154z" />
<glyph unicode="&#xd4;" horiz-adv-x="1398" d="M143 698q0 339 153 533t404 194q252 0 403.5 -190t151.5 -535q0 -337 -152.5 -530t-402.5 -193q-253 0 -405 188.5t-152 532.5zM270 698q0 -306 116 -461t314 -155t313 156.5t115 461.5q0 307 -114.5 464t-313.5 157q-200 0 -315 -158t-115 -465zM403 1616l267 201h61 l264 -201l-53 -62l-242 154l-241 -154z" />
<glyph unicode="&#xd5;" horiz-adv-x="1398" d="M143 698q0 339 153 533t404 194q252 0 403.5 -190t151.5 -535q0 -337 -152.5 -530t-402.5 -193q-253 0 -405 188.5t-152 532.5zM270 698q0 -306 116 -461t314 -155t313 156.5t115 461.5q0 307 -114.5 464t-313.5 157q-200 0 -315 -158t-115 -465zM399 1624 q64 150 189 150q38 0 74 -14.5t58.5 -32t48 -32t44.5 -14.5q34 0 59.5 21.5t51.5 66.5l73 -34q-66 -148 -190 -148q-42 0 -85 23t-78.5 46t-59.5 23q-35 0 -60.5 -22t-52.5 -68z" />
<glyph unicode="&#xd6;" horiz-adv-x="1398" d="M143 698q0 339 153 533t404 194q252 0 403.5 -190t151.5 -535q0 -337 -152.5 -530t-402.5 -193q-253 0 -405 188.5t-152 532.5zM270 698q0 -306 116 -461t314 -155t313 156.5t115 461.5q0 307 -114.5 464t-313.5 157q-200 0 -315 -158t-115 -465zM424 1634 q0 35 22.5 57.5t59.5 22.5t59.5 -22.5t22.5 -57.5t-22.5 -57.5t-59.5 -22.5t-59.5 22.5t-22.5 57.5zM809 1634q0 35 22.5 57.5t59.5 22.5t59.5 -22.5t22.5 -57.5t-22.5 -57.5t-59.5 -22.5t-59.5 22.5t-22.5 57.5z" />
<glyph unicode="&#xd7;" d="M172 346l262 262l-262 264l76 78l262 -264l264 264l76 -78l-262 -264l262 -262l-76 -78l-264 264l-262 -264z" />
<glyph unicode="&#xd8;" horiz-adv-x="1398" d="M143 698q0 339 153 533t404 194q70 0 148 -20l74 254l108 -29l-84 -264q146 -77 227.5 -247.5t81.5 -418.5q0 -337 -152.5 -530t-402.5 -193q-80 0 -153 21l-72 -246l-108 29l82 256q-145 77 -225.5 245t-80.5 416zM270 698q0 -425 215 -559l338 1166q-62 16 -123 16 q-200 0 -315 -158t-115 -465zM578 98q49 -16 122 -16q198 0 313 156.5t115 461.5q0 427 -215 564z" />
<glyph unicode="&#xd9;" horiz-adv-x="1335" d="M205 446v957h121v-950q0 -183 86 -277t256 -94t256 94t86 277v950h120v-957q0 -221 -120 -345t-342 -124q-223 0 -343 123t-120 346zM432 1704l66 106l362 -190l-41 -70z" />
<glyph unicode="&#xda;" horiz-adv-x="1335" d="M205 446v957h121v-950q0 -183 86 -277t256 -94t256 94t86 277v950h120v-957q0 -221 -120 -345t-342 -124q-223 0 -343 123t-120 346zM473 1620l363 190l65 -106l-387 -154z" />
<glyph unicode="&#xdb;" horiz-adv-x="1335" d="M205 446v957h121v-950q0 -183 86 -277t256 -94t256 94t86 277v950h120v-957q0 -221 -120 -345t-342 -124q-223 0 -343 123t-120 346zM371 1616l266 201h61l265 -201l-54 -62l-241 154l-242 -154z" />
<glyph unicode="&#xdc;" horiz-adv-x="1335" d="M205 446v957h121v-950q0 -183 86 -277t256 -94t256 94t86 277v950h120v-957q0 -221 -120 -345t-342 -124q-223 0 -343 123t-120 346zM393 1634q0 35 22.5 57.5t59.5 22.5t59.5 -22.5t22.5 -57.5t-22.5 -57.5t-59.5 -22.5t-59.5 22.5t-22.5 57.5zM778 1634q0 35 22.5 57.5 t59.5 22.5t59.5 -22.5t22.5 -57.5t-22.5 -57.5t-59.5 -22.5t-59.5 22.5t-22.5 57.5z" />
<glyph unicode="&#xdd;" horiz-adv-x="1058" d="M10 1403h137l383 -725h5l385 725h129l-457 -836v-567h-121v565zM336 1620l362 190l66 -106l-387 -154z" />
<glyph unicode="&#xde;" horiz-adv-x="1165" d="M225 0v1403h121v-246h199q538 0 538 -428q0 -118 -38 -205.5t-110 -140t-167.5 -77.5t-218.5 -25h-203v-281h-121zM346 383h213q93 0 162.5 16.5t124 54.5t82.5 106.5t28 166.5q0 328 -399 328h-211v-672z" />
<glyph unicode="&#xdf;" horiz-adv-x="1208" d="M225 0v1112q0 203 103 306.5t280 103.5q149 0 241.5 -75t92.5 -192q0 -56 -24.5 -103t-59 -79.5t-69.5 -62t-59.5 -64.5t-24.5 -72q0 -38 23 -71t60.5 -60t82 -54.5t89.5 -60.5t82.5 -72t60.5 -96.5t23 -125.5q0 -161 -103.5 -259t-264.5 -98q-147 0 -238 60l45 84 q79 -45 187 -45q112 0 182 69.5t70 192.5q0 57 -23 103.5t-59.5 79t-81 61l-89 57t-81 60t-59.5 76t-23 99.5q0 41 17.5 77t44 60t57 51.5t57 52t44 60.5t17.5 78q0 71 -60.5 121.5t-164.5 50.5q-260 0 -260 -307v-1118h-115z" />
<glyph unicode="&#xe0;" horiz-adv-x="1067" d="M92 299q0 165 124.5 252.5t344.5 87.5h184v106q0 128 -60.5 188t-195.5 60t-288 -59l-33 92q175 68 338 68q356 0 356 -342v-519q0 -84 24.5 -121t78.5 -53l-27 -82q-77 13 -120.5 53.5t-57.5 127.5v2q-55 -92 -143 -137.5t-195 -45.5q-154 0 -242 88t-88 234zM217 305 q0 -110 60.5 -168.5t173.5 -58.5q97 0 172.5 52t121.5 142v275h-178q-350 0 -350 -242zM299 1442l66 106l372 -215l-41 -69z" />
<glyph unicode="&#xe1;" horiz-adv-x="1067" d="M92 299q0 165 124.5 252.5t344.5 87.5h184v106q0 128 -60.5 188t-195.5 60t-288 -59l-33 92q175 68 338 68q356 0 356 -342v-519q0 -84 24.5 -121t78.5 -53l-27 -82q-77 13 -120.5 53.5t-57.5 127.5v2q-55 -92 -143 -137.5t-195 -45.5q-154 0 -242 88t-88 234zM217 305 q0 -110 60.5 -168.5t173.5 -58.5q97 0 172.5 52t121.5 142v275h-178q-350 0 -350 -242zM299 1333l373 215l65 -106l-397 -178z" />
<glyph unicode="&#xe2;" horiz-adv-x="1067" d="M92 299q0 165 124.5 252.5t344.5 87.5h184v106q0 128 -60.5 188t-195.5 60t-288 -59l-33 92q175 68 338 68q356 0 356 -342v-519q0 -84 24.5 -121t78.5 -53l-27 -82q-77 13 -120.5 53.5t-57.5 127.5v2q-55 -92 -143 -137.5t-195 -45.5q-154 0 -242 88t-88 234zM217 305 q0 -110 60.5 -168.5t173.5 -58.5q97 0 172.5 52t121.5 142v275h-178q-350 0 -350 -242zM221 1329l266 221h62l264 -221l-53 -61l-242 174l-242 -174z" />
<glyph unicode="&#xe3;" horiz-adv-x="1067" d="M92 299q0 165 124.5 252.5t344.5 87.5h184v106q0 128 -60.5 188t-195.5 60t-288 -59l-33 92q175 68 338 68q356 0 356 -342v-519q0 -84 24.5 -121t78.5 -53l-27 -82q-77 13 -120.5 53.5t-57.5 127.5v2q-55 -92 -143 -137.5t-195 -45.5q-154 0 -242 88t-88 234zM217 305 q0 -110 60.5 -168.5t173.5 -58.5q97 0 172.5 52t121.5 142v275h-178q-350 0 -350 -242zM219 1358q64 149 189 149q38 0 74 -14.5t58.5 -31.5t48 -31.5t44.5 -14.5q34 0 59 21.5t51 66.5l74 -35q-66 -147 -190 -147q-42 0 -85.5 23t-79 46t-59.5 23q-35 0 -60 -22t-52 -68z " />
<glyph unicode="&#xe4;" horiz-adv-x="1067" d="M92 299q0 165 124.5 252.5t344.5 87.5h184v106q0 128 -60.5 188t-195.5 60t-288 -59l-33 92q175 68 338 68q356 0 356 -342v-519q0 -84 24.5 -121t78.5 -53l-27 -82q-77 13 -120.5 53.5t-57.5 127.5v2q-55 -92 -143 -137.5t-195 -45.5q-154 0 -242 88t-88 234zM217 305 q0 -110 60.5 -168.5t173.5 -58.5q97 0 172.5 52t121.5 142v275h-178q-350 0 -350 -242zM244 1368q0 35 22.5 57.5t59.5 22.5t59.5 -22.5t22.5 -57.5t-22.5 -57.5t-59.5 -22.5t-59.5 22.5t-22.5 57.5zM629 1368q0 35 22.5 57.5t59.5 22.5t59.5 -22.5t22.5 -57.5t-22.5 -57.5 t-59.5 -22.5t-59.5 22.5t-22.5 57.5z" />
<glyph unicode="&#xe5;" horiz-adv-x="1067" d="M92 299q0 165 124.5 252.5t344.5 87.5h184v106q0 128 -60.5 188t-195.5 60t-288 -59l-33 92q175 68 338 68q356 0 356 -342v-519q0 -84 24.5 -121t78.5 -53l-27 -82q-77 13 -120.5 53.5t-57.5 127.5v2q-55 -92 -143 -137.5t-195 -45.5q-154 0 -242 88t-88 234zM217 305 q0 -110 60.5 -168.5t173.5 -58.5q97 0 172.5 52t121.5 142v275h-178q-350 0 -350 -242zM319 1440q0 83 55.5 134.5t143.5 51.5t143.5 -51.5t55.5 -134.5t-55.5 -135t-143.5 -52t-143.5 52t-55.5 135zM408 1440q0 -54 29 -85.5t81 -31.5t81.5 31.5t29.5 85.5q0 55 -29 85.5 t-82 30.5q-52 0 -81 -31t-29 -85z" />
<glyph unicode="&#xe6;" horiz-adv-x="1703" d="M92 301q0 165 124 251.5t345 86.5h184v106q0 248 -256 248q-135 0 -288 -59l-33 92q175 68 338 68q277 0 325 -217q43 101 138.5 159t208.5 58q198 0 300.5 -137t102.5 -390q0 -38 -4 -78h-709q10 -206 103 -308.5t237 -102.5q86 0 153 25t134 83l55 -80 q-141 -129 -346 -129q-130 0 -229 59.5t-158 162.5q-80 -122 -175 -172t-220 -50q-153 0 -241.5 88.5t-88.5 235.5zM217 311q0 -110 62.5 -171.5t171.5 -61.5q206 0 325 219q-31 105 -31 233v17h-178q-350 0 -350 -236zM868 582h596q-6 411 -286 411q-135 0 -218 -102.5 t-92 -308.5z" />
<glyph unicode="&#xe7;" horiz-adv-x="980" d="M133 530q0 255 124.5 409.5t332.5 154.5q185 0 319 -111l-61 -80q-114 90 -258 90q-152 0 -242 -118.5t-90 -344.5q0 -223 89.5 -337.5t242.5 -114.5q146 0 262 94l57 -82q-127 -107 -311 -113v-114q172 -17 172 -156q0 -82 -62 -126t-159 -44q-104 0 -174 39l45 80 q56 -29 119 -29q114 0 114 82q0 49 -40.5 68.5t-120.5 21.5l12 185q-174 26 -272.5 170.5t-98.5 375.5z" />
<glyph unicode="&#xe8;" horiz-adv-x="1101" d="M133 530q0 255 117 409.5t315 154.5t306 -140t108 -387q0 -38 -4 -78h-721q10 -206 103.5 -308.5t238.5 -102.5q86 0 154 25t135 83l55 -80q-141 -129 -348 -129q-218 0 -338.5 148.5t-120.5 404.5zM254 582h608q-3 199 -78.5 305t-218.5 106q-135 0 -218.5 -102.5 t-92.5 -308.5zM352 1442l66 106l373 -215l-41 -69z" />
<glyph unicode="&#xe9;" horiz-adv-x="1101" d="M133 530q0 255 117 409.5t315 154.5t306 -140t108 -387q0 -38 -4 -78h-721q10 -206 103.5 -308.5t238.5 -102.5q86 0 154 25t135 83l55 -80q-141 -129 -348 -129q-218 0 -338.5 148.5t-120.5 404.5zM254 582h608q-3 199 -78.5 305t-218.5 106q-135 0 -218.5 -102.5 t-92.5 -308.5zM352 1333l373 215l66 -106l-398 -178z" />
<glyph unicode="&#xea;" horiz-adv-x="1101" d="M133 530q0 255 117 409.5t315 154.5t306 -140t108 -387q0 -38 -4 -78h-721q10 -206 103.5 -308.5t238.5 -102.5q86 0 154 25t135 83l55 -80q-141 -129 -348 -129q-218 0 -338.5 148.5t-120.5 404.5zM254 582h608q-3 199 -78.5 305t-218.5 106q-135 0 -218.5 -102.5 t-92.5 -308.5zM274 1329l267 221h61l264 -221l-53 -61l-242 174l-241 -174z" />
<glyph unicode="&#xeb;" horiz-adv-x="1101" d="M133 530q0 255 117 409.5t315 154.5t306 -140t108 -387q0 -38 -4 -78h-721q10 -206 103.5 -308.5t238.5 -102.5q86 0 154 25t135 83l55 -80q-141 -129 -348 -129q-218 0 -338.5 148.5t-120.5 404.5zM254 582h608q-3 199 -78.5 305t-218.5 106q-135 0 -218.5 -102.5 t-92.5 -308.5zM297 1368q0 35 22.5 57.5t59.5 22.5t59.5 -22.5t22.5 -57.5t-22.5 -57.5t-59.5 -22.5t-59.5 22.5t-22.5 57.5zM682 1368q0 35 22.5 57.5t59.5 22.5t59.5 -22.5t22.5 -57.5t-22.5 -57.5t-59.5 -22.5t-59.5 22.5t-22.5 57.5z" />
<glyph unicode="&#xec;" horiz-adv-x="546" d="M33 1442l65 106l373 -215l-41 -69zM215 0v1071h117v-1071h-117z" />
<glyph unicode="&#xed;" horiz-adv-x="546" d="M74 1333l372 215l66 -106l-397 -178zM215 0v1071h117v-1071h-117z" />
<glyph unicode="&#xee;" horiz-adv-x="546" d="M-23 1329l267 221h61l264 -221l-53 -61l-242 174l-241 -174zM215 0v1071h117v-1071h-117z" />
<glyph unicode="&#xef;" horiz-adv-x="546" d="M-2 1368q0 35 22.5 57.5t59.5 22.5t59.5 -22.5t22.5 -57.5t-22.5 -57.5t-59.5 -22.5t-59.5 22.5t-22.5 57.5zM215 0v1071h117v-1071h-117zM383 1368q0 35 22.5 57.5t59.5 22.5t59.5 -22.5t22.5 -57.5t-22.5 -57.5t-59.5 -22.5t-59.5 22.5t-22.5 57.5z" />
<glyph unicode="&#xf0;" horiz-adv-x="1142" d="M133 457q0 207 116.5 344t282.5 137q205 0 336 -162q-39 326 -262 498l-151 -156l-86 39l161 170q-119 67 -260 96l15 99q195 -43 321 -117l142 149l73 -61l-137 -139q161 -121 238 -315.5t77 -475.5q0 -270 -116 -428t-324 -158q-191 0 -308.5 132.5t-117.5 347.5z M258 459q0 -169 83 -274t220 -105q155 0 237.5 136t82.5 384l-2 29q-133 209 -328 209q-131 0 -212 -106t-81 -273z" />
<glyph unicode="&#xf1;" horiz-adv-x="1189" d="M225 0v1071h101l8 -182q135 205 356 205q150 0 217.5 -82t67.5 -244v-768h-117v748q0 130 -47.5 188.5t-151.5 58.5q-93 0 -174 -65t-143 -164v-766h-117zM295 1358q64 149 188 149q49 0 92.5 -23t77 -46t56.5 -23q34 0 59 21.5t51 66.5l74 -35q-66 -147 -191 -147 q-42 0 -85 23t-78.5 46t-59.5 23q-35 0 -60 -22t-52 -68z" />
<glyph unicode="&#xf2;" horiz-adv-x="1171" d="M133 535q0 258 122.5 408.5t334.5 150.5q210 0 329 -148t119 -407q0 -258 -121.5 -410t-332.5 -152t-331 149.5t-120 408.5zM258 535q0 -223 85.5 -341t240.5 -118q157 0 243 118t86 345q0 223 -84.5 339.5t-238.5 116.5q-158 0 -245 -116.5t-87 -343.5zM346 1442l66 106 l372 -215l-41 -69z" />
<glyph unicode="&#xf3;" horiz-adv-x="1171" d="M133 535q0 258 122.5 408.5t334.5 150.5q210 0 329 -148t119 -407q0 -258 -121.5 -410t-332.5 -152t-331 149.5t-120 408.5zM258 535q0 -223 85.5 -341t240.5 -118q157 0 243 118t86 345q0 223 -84.5 339.5t-238.5 116.5q-158 0 -245 -116.5t-87 -343.5zM387 1333 l373 215l65 -106l-397 -178z" />
<glyph unicode="&#xf4;" horiz-adv-x="1171" d="M133 535q0 258 122.5 408.5t334.5 150.5q210 0 329 -148t119 -407q0 -258 -121.5 -410t-332.5 -152t-331 149.5t-120 408.5zM258 535q0 -223 85.5 -341t240.5 -118q157 0 243 118t86 345q0 223 -84.5 339.5t-238.5 116.5q-158 0 -245 -116.5t-87 -343.5zM289 1329 l266 221h61l265 -221l-54 -61l-241 174l-242 -174z" />
<glyph unicode="&#xf5;" horiz-adv-x="1171" d="M133 535q0 258 122.5 408.5t334.5 150.5q210 0 329 -148t119 -407q0 -258 -121.5 -410t-332.5 -152t-331 149.5t-120 408.5zM258 535q0 -223 85.5 -341t240.5 -118q157 0 243 118t86 345q0 223 -84.5 339.5t-238.5 116.5q-158 0 -245 -116.5t-87 -343.5zM287 1358 q64 149 188 149q38 0 74 -14.5t58.5 -31.5t48 -31.5t44.5 -14.5q34 0 59.5 21.5t51.5 66.5l74 -35q-66 -147 -191 -147q-42 0 -85 23t-78.5 46t-59.5 23q-35 0 -60.5 -22t-52.5 -68z" />
<glyph unicode="&#xf6;" horiz-adv-x="1171" d="M133 535q0 258 122.5 408.5t334.5 150.5q210 0 329 -148t119 -407q0 -258 -121.5 -410t-332.5 -152t-331 149.5t-120 408.5zM258 535q0 -223 85.5 -341t240.5 -118q157 0 243 118t86 345q0 223 -84.5 339.5t-238.5 116.5q-158 0 -245 -116.5t-87 -343.5zM311 1368 q0 35 22.5 57.5t59.5 22.5t59.5 -22.5t22.5 -57.5t-22.5 -57.5t-59.5 -22.5t-59.5 22.5t-22.5 57.5zM696 1368q0 35 22.5 57.5t59.5 22.5t59.5 -22.5t22.5 -57.5t-22.5 -57.5t-59.5 -22.5t-59.5 22.5t-22.5 57.5z" />
<glyph unicode="&#xf7;" d="M143 586v106h738v-106h-738zM414 240q0 42 27 69t71 27q45 0 71.5 -27t26.5 -69t-26.5 -69.5t-71.5 -27.5q-44 0 -71 27.5t-27 69.5zM414 1038q0 42 27 69.5t71 27.5q45 0 71.5 -27.5t26.5 -69.5t-26.5 -69t-71.5 -27q-44 0 -71 27t-27 69z" />
<glyph unicode="&#xf8;" horiz-adv-x="1171" d="M133 535q0 258 122.5 408.5t334.5 150.5q48 0 117 -15l71 230l101 -31l-78 -236q115 -62 176 -190.5t61 -312.5q0 -258 -121.5 -410t-332.5 -152q-54 0 -111 13l-74 -238l-100 31l78 242q-117 60 -180.5 191.5t-63.5 318.5zM258 535q0 -313 156 -414l268 862 q-43 12 -92 12q-158 0 -245 -116.5t-87 -343.5zM500 84q36 -8 84 -8q157 0 243 118t86 345q0 301 -147 405z" />
<glyph unicode="&#xf9;" horiz-adv-x="1177" d="M215 301v770h117v-756q0 -127 46 -183t142 -56q92 0 173 65t143 164v766h116v-1071h-100l-8 182q-135 -205 -344 -205q-285 0 -285 324zM369 1442l65 106l373 -215l-41 -69z" />
<glyph unicode="&#xfa;" horiz-adv-x="1177" d="M215 301v770h117v-756q0 -127 46 -183t142 -56q92 0 173 65t143 164v766h116v-1071h-100l-8 182q-135 -205 -344 -205q-285 0 -285 324zM389 1333l373 215l65 -106l-397 -178z" />
<glyph unicode="&#xfb;" horiz-adv-x="1177" d="M215 301v770h117v-756q0 -127 46 -183t142 -56q92 0 173 65t143 164v766h116v-1071h-100l-8 182q-135 -205 -344 -205q-285 0 -285 324zM293 1329l266 221h62l264 -221l-54 -61l-241 174l-242 -174z" />
<glyph unicode="&#xfc;" horiz-adv-x="1177" d="M215 301v770h117v-756q0 -127 46 -183t142 -56q92 0 173 65t143 164v766h116v-1071h-100l-8 182q-135 -205 -344 -205q-285 0 -285 324zM313 1368q0 35 22.5 57.5t59.5 22.5t59.5 -22.5t22.5 -57.5t-22.5 -57.5t-59.5 -22.5t-59.5 22.5t-22.5 57.5zM698 1368 q0 35 22.5 57.5t59.5 22.5t59.5 -22.5t22.5 -57.5t-22.5 -57.5t-59.5 -22.5t-59.5 22.5t-22.5 57.5z" />
<glyph unicode="&#xfd;" horiz-adv-x="954" d="M31 1071h129l329 -977h5l305 977h125l-361 -1075q-31 -92 -64.5 -157t-84.5 -120.5t-124 -89.5t-171 -49l-17 96q153 29 228.5 104t122.5 220h-41zM279 1333l372 215l66 -106l-398 -178z" />
<glyph unicode="&#xfe;" horiz-adv-x="1187" d="M225 -420v1927l117 15v-617q127 189 328 189q193 0 289 -144.5t96 -408.5q0 -256 -110.5 -410t-303.5 -154q-188 0 -299 158v-538zM342 264q115 -184 281 -184q149 0 228 116t79 345q0 452 -283 452q-177 0 -305 -217v-512z" />
<glyph unicode="&#xff;" horiz-adv-x="954" d="M31 1071h129l329 -977h5l305 977h125l-361 -1075q-31 -92 -64.5 -157t-84.5 -120.5t-124 -89.5t-171 -49l-17 96q153 29 228.5 104t122.5 220h-41zM219 1368q0 35 22.5 57.5t59.5 22.5t59.5 -22.5t22.5 -57.5t-22.5 -57.5t-59.5 -22.5t-59.5 22.5t-22.5 57.5zM604 1368 q0 35 22.5 57.5t59.5 22.5t59.5 -22.5t22.5 -57.5t-22.5 -57.5t-59.5 -22.5t-59.5 22.5t-22.5 57.5z" />
<glyph unicode="&#x152;" horiz-adv-x="1804" d="M143 698q0 339 153 533t404 194q80 0 154 -22h832l-15 -103h-663q177 -158 192 -522h393v-102h-391q-6 -394 -198 -574h698v-102h-850q-77 -23 -152 -23q-253 0 -405 188.5t-152 532.5zM270 698q0 -306 116 -460t314 -154q182 0 284.5 155t102.5 461q0 308 -102.5 463.5 t-284.5 155.5q-200 0 -315 -157t-115 -464z" />
<glyph unicode="&#x153;" horiz-adv-x="1871" d="M133 535q0 258 122.5 408.5t334.5 150.5q276 0 387 -265q110 265 369 265q198 0 300.5 -137t102.5 -390q0 -38 -4 -78h-707q10 -206 102 -307.5t236 -101.5q86 0 153 25t134 83l55 -82q-141 -129 -346 -129q-147 0 -244.5 68t-154.5 207q-113 -275 -389 -275 q-211 0 -331 149.5t-120 408.5zM258 535q0 -223 85 -339t241 -116q158 0 243.5 116t85.5 343t-84.5 339.5t-238.5 112.5q-158 0 -245 -115t-87 -341zM1038 582h594q-6 411 -286 411q-135 0 -217 -102.5t-91 -308.5z" />
<glyph unicode="&#x178;" horiz-adv-x="1058" d="M10 1403h137l383 -725h5l385 725h129l-457 -836v-567h-121v565zM256 1634q0 35 22.5 57.5t59.5 22.5t59.5 -22.5t22.5 -57.5t-22.5 -57.5t-59.5 -22.5t-59.5 22.5t-22.5 57.5zM641 1634q0 35 22.5 57.5t59.5 22.5t59.5 -22.5t22.5 -57.5t-22.5 -57.5t-59.5 -22.5 t-59.5 22.5t-22.5 57.5z" />
<glyph unicode="&#x2c6;" horiz-adv-x="714" d="M61 1329l267 221h61l264 -221l-53 -61l-242 170l-241 -170z" />
<glyph unicode="&#x2dc;" horiz-adv-x="720" d="M61 1358q64 149 189 149q38 0 74 -14.5t58.5 -31.5t48 -31.5t44.5 -14.5q34 0 59.5 21.5t51.5 66.5l73 -35q-66 -147 -190 -147q-42 0 -85 23t-78.5 46t-59.5 23q-35 0 -60.5 -22t-52.5 -68z" />
<glyph unicode="&#x2000;" horiz-adv-x="946" />
<glyph unicode="&#x2001;" horiz-adv-x="1892" />
<glyph unicode="&#x2002;" horiz-adv-x="946" />
<glyph unicode="&#x2003;" horiz-adv-x="1892" />
<glyph unicode="&#x2004;" horiz-adv-x="630" />
<glyph unicode="&#x2005;" horiz-adv-x="473" />
<glyph unicode="&#x2006;" horiz-adv-x="315" />
<glyph unicode="&#x2007;" horiz-adv-x="315" />
<glyph unicode="&#x2008;" horiz-adv-x="236" />
<glyph unicode="&#x2009;" horiz-adv-x="378" />
<glyph unicode="&#x200a;" horiz-adv-x="105" />
<glyph unicode="&#x2010;" horiz-adv-x="798" d="M135 586v106h529v-106h-529z" />
<glyph unicode="&#x2011;" horiz-adv-x="798" d="M135 586v106h529v-106h-529z" />
<glyph unicode="&#x2012;" horiz-adv-x="798" d="M135 586v106h529v-106h-529z" />
<glyph unicode="&#x2013;" horiz-adv-x="1064" d="M82 586v106h901v-106h-901z" />
<glyph unicode="&#x2014;" horiz-adv-x="1556" d="M82 586v106h1393v-106h-1393z" />
<glyph unicode="&#x2018;" horiz-adv-x="552" d="M143 1182q0 34 29 96l119 258h78l-74 -283q37 -23 37 -71q0 -39 -27 -64.5t-69 -25.5t-67.5 25.5t-25.5 64.5z" />
<glyph unicode="&#x2019;" horiz-adv-x="552" d="M164 1092l74 282q-37 23 -37 72q0 39 27 64.5t69 25.5t67 -25.5t25 -64.5q0 -34 -29 -96l-118 -258h-78z" />
<glyph unicode="&#x201a;" horiz-adv-x="552" d="M164 -293l74 283q-37 23 -37 71q0 39 27 65t69 26t67 -26t25 -65q0 -34 -29 -96l-118 -258h-78z" />
<glyph unicode="&#x201c;" horiz-adv-x="870" d="M164 1182q0 34 29 96l118 258h78l-74 -283q37 -23 37 -71q0 -39 -27 -64.5t-69 -25.5t-67 25.5t-25 64.5zM481 1182q0 34 29 96l119 258h78l-74 -283q37 -23 37 -71q0 -39 -27.5 -64.5t-69.5 -25.5t-67 25.5t-25 64.5z" />
<glyph unicode="&#x201d;" horiz-adv-x="870" d="M164 1092l74 282q-37 23 -37 72q0 39 27 64.5t69 25.5t67 -25.5t25 -64.5q0 -34 -29 -96l-118 -258h-78zM481 1092l74 282q-37 23 -37 72q0 39 27 64.5t69 25.5t67.5 -25.5t25.5 -64.5q0 -34 -29 -96l-119 -258h-78z" />
<glyph unicode="&#x201e;" horiz-adv-x="870" d="M164 -293l74 283q-37 23 -37 71q0 39 27 65t69 26t67 -26t25 -65q0 -34 -29 -96l-118 -258h-78zM481 -293l74 283q-37 23 -37 71q0 39 27 65t69 26t67.5 -26t25.5 -65q0 -34 -29 -96l-119 -258h-78z" />
<glyph unicode="&#x2022;" horiz-adv-x="819" d="M195 700q0 90 62 150.5t153 60.5t153 -61t62 -152q0 -90 -62 -150.5t-153 -60.5t-153 61t-62 152z" />
<glyph unicode="&#x2026;" horiz-adv-x="1720" d="M188 74q0 42 27.5 69t71.5 27q45 0 71.5 -27t26.5 -69t-26.5 -69.5t-71.5 -27.5q-44 0 -71.5 27.5t-27.5 69.5zM762 74q0 42 27 69t71 27q45 0 71.5 -27t26.5 -69t-26.5 -69.5t-71.5 -27.5q-44 0 -71 27.5t-27 69.5zM1335 74q0 42 27.5 69t71.5 27q45 0 71.5 -27 t26.5 -69t-26.5 -69.5t-71.5 -27.5q-44 0 -71.5 27.5t-27.5 69.5z" />
<glyph unicode="&#x202f;" horiz-adv-x="378" />
<glyph unicode="&#x2039;" horiz-adv-x="696" d="M143 557v84l338 422l72 -49l-279 -416l279 -414l-72 -49z" />
<glyph unicode="&#x203a;" horiz-adv-x="696" d="M143 184l277 414l-277 416l72 49l338 -422v-84l-338 -422z" />
<glyph unicode="&#x205f;" horiz-adv-x="473" />
<glyph unicode="&#x20ac;" d="M33 500l24 100h127v193h-151l24 100h140q35 242 153.5 366.5t306.5 124.5q169 0 291 -77l-53 -84q-104 61 -229 61q-296 0 -351 -391h519l-25 -100h-502v-193h465l-22 -100h-439q22 -218 103.5 -320t228.5 -102q158 0 287 106v-121q-49 -36 -128.5 -61t-168.5 -25 q-187 0 -300.5 132.5t-142.5 390.5h-157z" />
<glyph unicode="&#x2122;" horiz-adv-x="1843" d="M143 1317v84h623l-16 -84h-250v-694h-97v694h-260zM825 623l39 778h117l221 -580l215 580h119l39 -778h-94l-21 391q-4 86 -4 264l-211 -565h-88l-217 567q0 -166 -4 -266l-18 -391h-93z" />
<glyph unicode="&#x25fc;" horiz-adv-x="1075" d="M0 0v1075h1075v-1075h-1075z" />
<glyph unicode="&#xfb01;" horiz-adv-x="1161" d="M51 975v96h199v182q0 126 81.5 197.5t241.5 71.5q145 0 293 -76l-43 -90q-133 63 -245 63q-115 0 -163 -43t-48 -129v-176h579v-1071h-117v975h-462v-975h-117v975h-199z" />
<glyph unicode="&#xfb02;" horiz-adv-x="1171" d="M51 975v96h199v182q0 127 83 198t247 71q113 0 241 -41l117 20v-1321q0 -100 84 -100q36 0 76 14l32 -86q-57 -31 -129 -31q-83 0 -131.5 48t-48.5 151v1202q-119 41 -237 41q-119 0 -168 -43t-49 -129v-176h282l-14 -96h-268v-975h-117v975h-199z" />
</font>
</defs>
</svg>
